Dutzu-Comunity

Dutzu Comunity
 
AcasaCalendarFAQCautareMembriGrupuriInregistrareConectare

Distribuiţi | 
 

 Private.Blockbusters.3.Private.Sexth.Element.XXX.DVDRip.XviD-FLESHLiGH

In jos 
AutorMesaj
Admin
Admin


Mesaje : 77
Data de înscriere : 01/12/2009

MesajSubiect: Private.Blockbusters.3.Private.Sexth.Element.XXX.DVDRip.XviD-FLESHLiGH   Mar Dec 01, 2009 7:38 pm



NFO:

General
Complete name : E:VAnkoNewPrivate.Blockbusters.3.Private.Sexth.Element.XXX.DVDRip.XviD-FLESHLiGHTPrivate.Blockbusters.3.Private.Sexth.Element.XXX.DVDRip.XviD-FLESHLiGHT.CD1.avi
Format : AVI
Format/Info : Audio Video Interleave
File size : 698 MiB
Duration : 53mn 42s
Overall bit rate : 1 817 Kbps
Writing application : Nandub v1.0rc2
Writing library : Nandub build 1853/release

Video
ID : 0
Format : MPEG-4 Visual
Format profile : E-mail
Format settings, BVOP : Yes
Format settings, QPel : No
Format settings, GMC : No warppoints
Format settings, Matrix : Default (H.263)
Muxing mode : Packed bitstream
Codec ID : XVID
Codec ID/Hint : XviD
Duration : 53mn 42s
Bit rate : 1 700 Kbps
Width : 672 pixels
Height : 384 pixels
Display aspect ratio : 16:9
Frame rate : 25.000 fps
Resolution : 24 bits
Colorimetry : 4:2:0
Scan type : Progressive
Bits/(Pixel*Frame) : 0.263
Stream size : 653 MiB (94%)
Writing library : XviD 1.2.0.dev47 (UTC 2006-11-01)

Audio
ID : 1
Format : MPEG Audio
Format version : Version 1
Format profile : Layer 3
Codec ID : 55
Codec ID/Hint : MP3
Duration : 53mn 42s
Bit rate mode : Variable
Bit rate : 105 Kbps
Nominal bit rate : 128 Kbps
Channel(s) : 2 channels
Sampling rate : 48.0 KHz
Resolution : 16 bits
Video delay : 288ms
Stream size : 40.2 MiB (6%)
Alignment : Aligned on interleaves
Interleave, duration : 24 ms (0.60 video frame)
Interleave, preload duration : 1276 ms
Writing library : LAME3.97
Encoding settings : -m j -V 4 -q 2 -lowpass 17 --abr 128

General
Complete name : E:VAnkoNewPrivate.Blockbusters.3.Private.Sexth.Element.XXX.DVDRip.XviD-FLESHLiGHTPrivate.Blockbusters.3.Private.Sexth.Element.XXX.DVDRip.XviD-FLESHLiGHT.CD2.avi
Format : AVI
Format/Info : Audio Video Interleave
File size : 699 MiB
Duration : 1h 7mn
Overall bit rate : 1 449 Kbps
Writing application : Nandub v1.0rc2
Writing library : Nandub build 1853/release

Video
ID : 0
Format : MPEG-4 Visual
Format profile : E-mail
Format settings, BVOP : Yes
Format settings, QPel : No
Format settings, GMC : No warppoints
Format settings, Matrix : Default (H.263)
Muxing mode : Packed bitstream
Codec ID : XVID
Codec ID/Hint : XviD
Duration : 1h 7mn
Bit rate : 1 331 Kbps
Width : 672 pixels
Height : 384 pixels
Display aspect ratio : 16:9
Frame rate : 25.000 fps
Resolution : 24 bits
Colorimetry : 4:2:0
Scan type : Progressive
Bits/(Pixel*Frame) : 0.206
Stream size : 642 MiB (92%)
Writing library : XviD 1.2.0.dev47 (UTC 2006-11-01)

Audio
ID : 1
Format : MPEG Audio
Format version : Version 1
Format profile : Layer 3
Codec ID : 55
Codec ID/Hint : MP3
Duration : 1h 7mn
Bit rate mode : Variable
Bit rate : 105 Kbps
Channel(s) : 2 channels
Sampling rate : 48.0 KHz
Resolution : 16 bits
Stream size : 50.7 MiB (7%)
Alignment : Aligned on interleaves
Interleave, duration : 24 ms (0.60 video frame)
Interleave, preload duration : 460 ms


Download
http://www.fileshare.ro/1798722226.85
mirror
http://www.netdrive.ws/245943.html

_______________________________________
Sus In jos
Vezi profilul utilizatorului http://dutzu.wikiforum.ro
 
Private.Blockbusters.3.Private.Sexth.Element.XXX.DVDRip.XviD-FLESHLiGH
Sus 
Pagina 1 din 1

Permisiunile acestui forum:Nu puteti raspunde la subiectele acestui forum
Dutzu-Comunity :: Media :: xxx-
Mergi direct la: