Dutzu-Comunity

Dutzu Comunity
 
AcasaCalendarFAQCautareMembriGrupuriInregistrareConectare

Distribuiţi | 
 

 dil_tera_aashiq

In jos 
AutorMesaj
Admin
Admin


Mesaje : 77
Data de înscriere : 01/12/2009

MesajSubiect: dil_tera_aashiq   Mar Dec 01, 2009 7:45 pm



General

Complete name : Dil Tera Aashiq
Format : AVI
Format/Info : Audio Video Interleave
File size : 703 MiB
Duration : 1h 18mn
Overall bit rate : 1 246 Kbps
Writing application : Nandub v1.0rc2
Writing library : Nandub build 1853/release

Video
ID : 0
Format : MPEG-4 Visual
Format profile : Streaming E-mail
Format settings, BVOP : Yes
Format settings, QPel : No
Format settings, GMC : No warppoints
Format settings, Matrix : Default (MPEG)
Codec ID : XVID
Codec ID/Hint : XviD
Duration : 1h 18mn
Bit rate : 1 106 Kbps
Width : 640 pixels
Height : 272 pixels
Display aspect ratio : 2.35
Frame rate : 23.976 fps
Resolution : 24 bits
Colorimetry : 4:2:0
Scan type : Progressive
Bits/(Pixel*Frame) : 0.265
Stream size : 624 MiB (89%)
Writing library : XviD 1.1.0 Beta2 (UTC 2005-04-04)

Audio
ID : 1
Format : MPEG Audio
Format version : Version 1
Format profile : Layer 3
Codec ID : 55
Codec ID/Hint : MP3
Duration : 1h 18mn
Bit rate mode : Variable
Bit rate : 127 Kbps
Nominal bit rate : 128 Kbps
Channel(s) : 2 channels
Sampling rate : 48.0 KHz
Resolution : 16 bits
Stream size : 71.8 MiB (10%)
Alignment : Aligned on interleaves
Interleave, duration : 24 ms (0.58 video frame)
Interleave, preload duration : 296 ms
Writing library : LAME3.96r
Encoding settings : -m j -V 4 -q 2 -lowpass 17.5 --abr 128

Release Date: 5 October 1993 (India)
Director: Lawrence D'Souza

Cast: Madhuri Dixit ... Sonia Khanna / Savitri Devi

Salman Khan ... Vijay
Kader Khan ... Naseeb Kumar
Asrani ... Natwal Lal
Tej Sapru ... Pratap Singh
Raja Duggal ... House Servant
Anupam Kher ... Chaudhary Ranbir Singh
Anil Kapoor ... Himself (presenting award)

Deepak Tijori ... Announcer
Mangal Dhillon ... Black Eye's Henchman
Arvind Mehra (as Aravind Mehara)
Shakti Kapoor ... Black Eye
Anjana Mumtaz ... Mrs. Khanna
Yunus Parvez ... Professor
Damyanti Puri (as Damayanti Puri



Downlaod;:: http://www.netdrive.ws/223772.html
Sus In jos
Vezi profilul utilizatorului http://dutzu.wikiforum.ro
 
dil_tera_aashiq
Sus 
Pagina 1 din 1

Permisiunile acestui forum:Nu puteti raspunde la subiectele acestui forum
Dutzu-Comunity :: Media :: Filme Indiene-
Mergi direct la: